2 long weeks

Yeah it’s been that long since I last had chance to have a play. I am learning a new skill, drop mixing. On this mix track, there’s some at the end.

Drop mixing is bringing in a new track suddenly at a point where the old track would drop the beat (bring up the energy), but more or less at the same phrase to keep the energy high.

So instead of my usual long (16 bar) mixes, there’s a few in here that are a lot shorter. It starts out a little rough but IT does get better.
Start listening at 17 minutes.

TRACK 01 AUDIO
TITLE “Don’t Miss The Partyline – Bizz Nizz”
PERFORMER “Bizz Nizz”

INDEX 01 00:00:00
TRACK 02 AUDIO
TITLE “Soulshakin’ (Original Mix)”
PERFORMER “Earth n Days”

INDEX 01 00:00:31
TRACK 03 AUDIO
TITLE “Naked In the Rain (Club Mix)”
PERFORMER “Tyrrell, Blue Pearl”

INDEX 01 00:05:53
TRACK 04 AUDIO
TITLE “Make Up (Original Mix)”
PERFORMER “Hot Since 82”

INDEX 01 00:09:40
TRACK 05 AUDIO
TITLE “Drop The Pressure (Extended Version)”
PERFORMER “Mylo, Claptone”

INDEX 01 00:13:14
TRACK 06 AUDIO
TITLE “Madera (Gabry Venus Remix)”
PERFORMER “Pato’s Groove”

INDEX 01 00:16:02
TRACK 07 AUDIO
TITLE “Drop The Pressure (Extended Version)”
PERFORMER “Mylo, Claptone”

INDEX 01 00:16:43
TRACK 08 AUDIO
TITLE “Calabria (Club Mix)”
PERFORMER “Criminal Vibes”

INDEX 01 00:19:01
TRACK 09 AUDIO
TITLE “Trumpets (Original Club Mix)”
PERFORMER “Simon Fava, Yvvan Back”

INDEX 01 00:20:36
TRACK 10 AUDIO
TITLE “YEAH (Original Mix)”
PERFORMER “Richard Grey, Lissat”

INDEX 01 00:24:19
TRACK 11 AUDIO
TITLE “Street Player (Club Mix)”
PERFORMER “Tradelove”

INDEX 01 00:29:00
TRACK 12 AUDIO
TITLE “September (Original Mix)”
PERFORMER “Richard Grey, Lissat”

INDEX 01 00:31:50
TRACK 13 AUDIO
TITLE “Let’s Play House (Original Mix)”
PERFORMER “Crazibiza, House of Prayers”

INDEX 01 00:34:05
TRACK 14 AUDIO
TITLE “Voulez Vous (Original Mix)”
PERFORMER “Jackers Revenge, Lissat”

INDEX 01 00:37:24
TRACK 15 AUDIO
TITLE “Cumbiano (Original Mix)”
PERFORMER “Crazibiza”

INDEX 01 00:40:11
TRACK 16 AUDIO
TITLE “Voulez Vous (Original Mix)”
PERFORMER “Jackers Revenge, Lissat”

INDEX 01 00:40:57
TRACK 17 AUDIO
TITLE “Cocaine (DJ Vartan & Techcrasher Remix)”
PERFORMER “Dian Solo”

INDEX 01 00:43:14
TRACK 18 AUDIO
TITLE “Dubwise (Original Mix)”
PERFORMER “Orson Welsh”

INDEX 01 00:45:46
TRACK 19 AUDIO
TITLE “Get Funky (Original Mix)”
PERFORMER “A-One”

INDEX 01 00:47:33
TRACK 20 AUDIO
TITLE “Last Night A DJ Saved My Life (Original Mix)”
PERFORMER “Julian The Angel”

INDEX 01 00:50:52
TRACK 21 AUDIO
TITLE “Stayin’ Alive 95 (Original Mix)”
PERFORMER “Richard Grey, Lissat”

INDEX 01 00:54:47
TRACK 22 AUDIO
TITLE “Last Night A DJ Saved My Life (Original Mix)”
PERFORMER “Julian The Angel”

INDEX 01 00:55:50
TRACK 23 AUDIO
TITLE “Tatadadah (Original Mix)”
PERFORMER “Block & Crown, Lissat”

INDEX 01 00:57:26
TRACK 24 AUDIO
TITLE “Ladies Night (Back & EM PI Remix)”
PERFORMER “Yvvan Back”

INDEX 01 00:59:58
TRACK 25 AUDIO
TITLE “Turn Around (Richard Grey Club Mix)”
PERFORMER “David Harris”

INDEX 01 01:02:42
TRACK 26 AUDIO
TITLE “Back to the Roots (Original Mix)”
PERFORMER “Darksidevinyl”

INDEX 01 01:05:53
TRACK 27 AUDIO
TITLE “Turn Around (Richard Grey Club Mix)”
PERFORMER “David Harris”

INDEX 01 01:07:24
TRACK 28 AUDIO
TITLE “Ladies Night (Back & EM PI Remix)”
PERFORMER “Yvvan Back”

INDEX 01 01:10:04
TRACK 29 AUDIO
TITLE “Turn Around (Richard Grey Club Mix)”
PERFORMER “David Harris”

INDEX 01 01:11:36
TRACK 30 AUDIO
TITLE “Ladies Night (Back & EM PI Remix)”
PERFORMER “Yvvan Back”

INDEX 01 01:11:40
TRACK 31 AUDIO
TITLE “Turn Around (Richard Grey Club Mix)”
PERFORMER “David Harris”

INDEX 01 01:13:22

About 🎧Daz The DJ🎧

I'm a keen gamer, technophile and now a huge advocate of E-Bikes and all their benefits.

This Website
View All Posts

Dylan Thomas, 1914 - 1953

Do not go gentle into that good night,
Old age should burn and rave at close of day;
Rage, rage against the dying of the light.

Though wise men at their end know dark is right,
Because their words had forked no lightning they
Do not go gentle into that good night.

Good men, the last wave by, crying how bright
Their frail deeds might have danced in a green bay,
Rage, rage against the dying of the light.

Wild men who caught and sang the sun in flight,
And learn, too late, they grieved it on its way,
Do not go gentle into that good night.

Grave men, near death, who see with blinding sight
Blind eyes could blaze like meteors and be gay,
Rage, rage against the dying of the light.

And you, my father, there on the sad height,
Curse, bless, me now with your fierce tears, I pray.
Do not go gentle into that good night.
Rage, rage against the dying of the light.

TROPHY CARD

Tagged , . Bookmark the permalink.

Leave a Reply

Your email address will not be published. Required fields are marked *

This site uses Akismet to reduce spam. Learn how your comment data is processed.